logo

Most popular

Contacts femmes de plus de 40 Annonce gratuite de femme cherche homme

Bonjour, Je r ponds au pseudo de Vanna. Je ne suis plus une minette, j ai bien d pass la quarantaine. Mais je l assume pleinement! Mon ge a la qualit de me.Mitoo est là pour t aider. Ce site te permet d entrer en.


Read more

Sexe occasionnel milan Les relations indésirables

Coucher avec fait entrer dans une dimension bien particulière, qui peut entraîner des conséquences psychiques indésirables. Car il ne s agit pas seulement de partager une intimité sexuelle : c est aussi toucher quelque chose de profond en soi.C est le cas par exemple.


Read more

Je cherche femme pour mariage à cuba Rencontre de cougar

La photo de cette femme encerclée de policiers municipaux à Nice a fait plus pour le salafisme que cent prêches radicaux dans des mosquées. Elle a contribué à renforcer les positions victimaires de ceux qui sy complaisaient déjà et à faire douter les musulmans républicains.La.


Read more

Top news

10 caractéristiques qu'une femme recherche chez un " width="85" alt="10 caractéristiques qu'une femme recherche chez un homme Femme tres mur" />
Certaines femmes vont pouvoir répondre de suite, car elles sont un accès internet à la maison ou au bureau. D autres vont mettre un peu plus de temps, car elle devront se déplacer dans un cyber café.Nous vous conseillerons plutôt de contacter des femmes de...
Read more
Les contacts de femmes bogota Incontri chaud " width="85" alt="Les contacts de femmes bogota Incontri chaud pescara" />
La France a la chance de posséder l un des plus beaux espaces ruraux d Europe,. Le à 11h43 photos, paysages, monde rural, france Emmanuel Boitier éditeur Par Pierre Jourde Je nai pas lhabitude dévoquer ici mes productions, ce nest pas le lieu, sauf...
Read more

Je cherche l'homme à talca Contact femmes


Je cherche l'homme à talca Contact femmes

DR Peak RMS Duration Track. DR6 -0.10 dB -8.72 dB 4:32 01-De l'Homme à l'Animal. DR5 0.00 dB -7.01 dB 3:19 02-Par hasard. DR6 -1.09 dB -9.32 dB 3:47 03-Héloïse. DR6 0.00 dB -7.81 dB 3:06 04-Daddy.
Voil? mon avis: suivez cet avis ou ne suivez pas cet avis, cest votre affaire. Il parle? cet?tudiant. Les voyageurs admirent les monuments historiques de Paris. Ce petit gar? on ne d?range pas sa grand-m?re quand elle se repose.
Channels: 2 Bits per sample: 24 Bitrate: 1388 kbps Codec: FLAC Источник: m Download Скачать раздачу по magnet-ссылке 489.5 MB Сайт не распространяет и не хранит электронные версии произведений, а лишь предоставляет доступ к создаваемому пользователями каталогу ссылок на торрент-файлы, которые содержат только списки хеш-сумм.
S occup? e. Je viens chez mes amis, mais je ne les trouve pas? la maison. Elle court? ses amies. Je naime pas parler de cette histoire avec mes copins. Quand les?tudiants passent devant le professeur, ils lui disent bonjour.
Ais (переведите на французский язык). Верните, пожалуйста, книгу, если она вам больше не нужна. Он спас мне жизнь, я этого никогда не забуду. Она должна вставать теперь очень рано и никак не может к этому привыкнуть.
Re cadet? A-t-elle recopi? sa traduction? Voudriez-vous lire ce livre? Ont-ils retrouv? leurs amis? Avez-vos appris cette po? sie? Peut-il faire ce travail urgent? As-tu parl?? cet?tudiant? Vodriez-vous avoir ces livres? As-tu lu cette lettre?
Перед притяжательными местоимениями всегда стоит определенный артикль. LES PRONOMS D?MONSTRATIFS УКАЗАТЕЛЬНЫЕ МЕСТОИМЕНИЯ Таблица 41 LEMPLOI DES PRONOMS D?MONSTRATIFS УПОТРЕБЛЕНИЕ УКАЗАТЕЛЬНЫХ МЕСТОИМЕНИЙ Таблица 42 LES PRONOMS RELATIFS ОТНОСИТЕЛЬНЫЕ МЕСТОИМЕНИЯ Таблица 43. LEMPLOI DES PRONOMS RELATIFS УПОТРЕБЛЕНИЕ ОТНОСИТЕЛЬНЫХ МЕСТОИМЕНИЙ.
Verse-lui? boir, il a soif. Faites-le venir chez vous. Voici la lettre, d?cachetez-la. Pose-lui cette question. Donne-leur les allumettes. Expliquez-nous cette r?gle. 59. R?pondez aux questions en rempla? ant les mots en italique par un pronom personnel (ответьте на вопросы, заменяя выделенные слова личным местоимением).
Pouvez-vous nous pr? venir de votre ariv? e? Penses-tu souvent? ta petite s?ur? Est-ce que? tes parents que tu donnes chaque jour un coup de t?l?phone? Vous?crit-il chaque mois? Chantez vous souvent cette chanson?
Bessa - De l'Homme a l'AnimalФормат записи/Источник записи: TR24OF. Наличие водяных знаков: Нет Год издания/переиздания диска: 2017 Жанр: French Pop. Издатель (лейбл Elektra France Продолжительность: 44:56 Наличие сканов в содержимом раздачи: Только обложка альбома.
Je suis plus ag? que cette fille. En cas de besoin vous pouvez compter sur mes amis. Правильные ответы (les r?ponses elle, lui, lui, lui, elle, eux, lui, elle, eux, elles, eux, lui, elle, elles, elle, eux.




889
Sitemap